#TITLE:Fireworks;
#SUBTITLE:;
#ARTIST:Koyote;
#TITLETRANSLIT:Fireworks;
#SUBTITLETRANSLIT:;
#ARTISTTRANSLIT:Koyote;
#CREDIT:Thu Hai , 29-12-2008;
#BANNER:Fireworks-bn.png;
#BACKGROUND:Fireworks-bg.png;
#LYRICSPATH:;
#CDTITLE:pm4cd.png;
#MUSIC:Fireworks.mp3;
#OFFSET:-0.300;
#SAMPLESTART:69.960;
#SAMPLELENGTH:20.000;
#SELECTABLE:YES;
#BPMS:0.000=142.020;
#STOPS:;
#BGCHANGES:;
// cache tags:
#FIRSTBEAT:0.000;
#LASTBEAT:541.000;
#SONGFILENAME:Songs/Music V.I.P ^_^/Fireworks/Fireworks.sm;
#HASMUSIC:1;
#HASBANNER:1;
#MUSICLENGTH:233.412;
// end cache tags

//---------------dance-single - ----------------
#NOTES:
     dance-single:
     :
     Hard:
     12:
     1.000,1.000,1.000,0.146,0.478,1286.000,596.000,34.000,0.000,225.000:
1000
0100
0010
0001
1010
0000
0100
0000
0010
0000
0001
0000
1001
0000
0010
0000
,
0100
1000
1001
0100
0010
0001
1001
0010
,
0100
1000
1001
0100
0010
0001
1001
0010
,
0100
1000
1001
0100
0010
0001
1001
0010
,
0100
1000
1001
0100
0010
0001
1001
0010
,
0100
1000
1001
0100
0010
0001
1001
0010
,
0100
1000
1001
0100
0010
0001
1001
0010
,
0100
1000
1001
0100
0010
0001
1001
0010
,
0100
1000
1010
0100
0101
0010
1100
0010
,
0011
0100
1001
0100
0110
0001
1010
0100
,
0011
1000
1010
0010
1100
0001
0101
0100
,
1010
0000
0100
0000
1000
0100
0010
0001
0010
0100
1000
0100
0010
0001
0010
0100
,
1000
0100
0010
0001
1110
0000
0010
0000
0101
0000
0100
0000
1010
0000
0010
0000
,
0101
0010
1011
0100
1100
0010
0101
0010
,
1010
0001
1101
0010
0110
1000
1011
0010
,
1001
0000
0100
0000
1011
0000
0100
0000
0111
0000
0010
0000
1110
1110
1110
1110
,
1110
1110
1110
1110
0011
0000
1100
0000
0101
0000
1010
0000
0110
0000
1010
0000
,
0101
0011
1100
0110
1001
0101
1010
1100
,
0011
1100
0110
0101
1010
0101
1010
0110
,
1100
0011
0101
1010
1100
0110
0011
1010
,
1001
0110
0101
0110
1010
1100
0011
1010
,
0110
1100
0011
0101
1010
1100
0011
0101
,
1010
0110
1100
0011
0110
1010
0110
1010
,
0101
0011
1010
1100
1010
0101
0110
1001
,
1100
0010
0001
0010
1100
0010
0001
0100
,
1010
0001
0100
0010
0101
1000
0010
0001
,
1010
0100
0001
0010
1100
0001
1000
0010
,
0101
0010
1000
0010
0101
0010
1000
0100
,
0011
1000
0001
0100
1010
0001
0010
0100
,
1010
0001
1000
0100
0011
0100
1000
0001
,
0110
0010
0001
0100
0011
1000
0100
0010
,
0101
0000
0010
0000
0001
0010
1000
0100
0001
0010
1000
0100
0001
0010
1000
0100
,
0001
0010
1000
0100
0011
0000
0010
0010
1110
0000
0100
0100
1100
0000
1000
1000
,
1011
0000
0001
0001
0011
0000
0010
0010
1110
0000
0100
0100
1100
0000
1000
1000
,
1011
0000
1000
1000
1100
0000
0100
0100
0111
0000
0010
0010
0011
0000
0001
0001
,
1101
0000
1000
1000
1100
0000
0100
0100
0111
0000
0010
0010
0011
0000
0001
0001
,
1101
0000
0001
0001
0011
0000
0010
0010
1110
0000
0100
0100
1100
0000
1000
1000
,
1011
0000
0001
0001
0011
0000
0010
0010
1110
0000
0100
0100
1100
0000
1000
1000
,
1011
0000
1000
1000
1100
0000
0100
0100
0111
0000
0010
0010
0011
0000
0001
0001
,
1101
0000
1000
1000
1100
0000
0100
0100
0111
0000
0010
0010
0011
0000
0001
0001
,
1101
0000
0010
0000
1010
0000
0100
0000
0101
0000
0010
0000
0111
0111
0111
0111
,
0111
0111
0111
0111
1000
0100
0010
0000
1001
0010
0100
0000
1000
0100
0010
0000
,
1001
0010
0100
0000
1000
0100
0010
0000
1001
0010
0100
0000
1000
0100
0010
0000
,
1001
0010
0100
0000
0100
0010
0001
0000
0011
0100
1000
0000
0100
0010
0001
0000
,
0011
0100
1000
0000
0100
0010
0001
0000
0011
0100
1000
0000
0100
0010
0001
0000
,
0011
0100
1000
0000
0010
0001
1000
0000
0110
1000
0001
0000
0010
0001
1000
0000
,
0110
1000
0001
0000
0010
0001
1000
0000
0110
1000
0001
0000
0010
0001
1000
0000
,
0110
1000
0001
0000
0001
0010
0100
0000
1001
0100
0010
0000
0001
0010
0100
0000
,
1001
0100
0010
0000
0001
0010
0100
0000
1001
0100
0010
0000
0001
0010
0100
0000
,
1001
0100
0010
0000
0011
0000
1100
0000
0111
0000
1010
0000
0110
0000
1010
0000
,
1101
0011
1100
0110
1011
0101
1010
1100
,
1011
1100
0110
0101
1110
0101
1010
0110
,
1101
0011
0101
1010
1101
0110
0011
1010
,
1101
0110
1010
0101
1110
1010
1100
0011
,
1011
0110
1100
0011
0111
1010
1100
0011
,
1101
1010
0110
1100
0111
0110
1010
0101
,
1011
1010
1100
0110
1110
0101
1100
1001
,
0111
1100
1111
2000
0011
3200
1010
0320
,
1001
0032
0110
0023
0101
0130
1001
1000
,
0101
0010
1100
0201
1001
2310
0101
3210
,
1010
0321
1001
1230
0011
1310
0110
1010
,
1100
0101
1001
2010
0110
3201
0011
1320
,
1100
2031
0101
3120
1100
1230
1001
0321
,
1001
1032
1100
0213
0011
2310
0101
3120
,
1100
0231
1001
0312
0110
2013
0101
3210
,
0011
1301
1110
0000
0111
0000
1101
0000
,
1011
0000
0000
0000
1111
0000
0000
0000
0000
0000
0000
0000
0101
1010
0101
1010
,
0101
1010
0101
1010
1111
0000
0010
0000
1100
0000
0001
0000
0101
0000
1000
0000
,
1100
0001
0110
1000
1010
0001
0011
1000
,
0110
0010
0101
0010
0011
0010
0110
0100
,
1100
0001
0012
0100
1010
1000
1100
0010
,
1100
0010
0113
1000
0101
0010
1100
0100
,
0101
0010
1010
1000
0110
0010
0011
0100
,
0110
0010
1010
0001
1001
0100
0011
1000
,
1100
0000
0010
0000
1010
0001
0010
0100
0010
0100
1000
0100
0010
0100
0010
0001
,
0010
0100
0010
0100
1011
0000
0100
0000
1100
0000
0010
0000
0100
0000
1000
0000
,
0101
0010
0001
0010
1100
0001
0100
0001
,
1010
0100
1000
0100
0011
0100
0010
1000
,
0101
0010
0001
0010
1100
0010
1000
0100
,
0011
0001
0100
0010
1100
0100
0010
1000
,
0011
0100
1000
0100
1001
0010
0100
0010
,
0011
1000
0010
0100
0101
0010
0001
1000
,
0110
0000
0100
0000
0010
0001
0100
1000
0010
0001
0100
1000
0010
0001
0100
1000
,
0010
0001
0100
1000
0120
0000
0000
0000
1131
0000
0010
0000
1200
0000
0000
0000
,
1311
1000
0012
0000
1113
0100
2010
0000
,
3111
0100
0120
0000
1131
0001
0201
0000
,
1311
0010
0102
0000
1113
0100
2100
0000
,
3111
0011
0011
0011
1011
0000
0100
0000
1010
0000
0001
0000
0010
0000
0100
0000
,
0011
1000
0010
0100
0011
1000
0001
0100
,
1010
0100
1000
0010
0101
1000
0100
0010
,
0101
0000
0000
0010
0000
0000
1000
0000
0000
0100
0000
0000
0011
0000
0000
0100
0000
0000
1000
0100
0010
0001
0010
0100
,
1000
0000
0100
0000
0010
0000
0001
0000
0010
0000
0100
0000
1011
0000
0000
0000
0000
0000
0000
0000
0000
0000
0000
0000
1101
0000
0000
0000
0000
0000
0000
0000
0000
0000
0000
0000
0011
0000
0000
1100
0000
0000
0011
0000
0000
1100
0000
0000
,
0011
1100
0011
1100
1011
0100
0010
0000
1100
0010
0001
0000
1000
0100
0010
0000
,
1100
0010
0001
0000
1000
0100
0010
0000
1100
0010
0001
0000
1000
0100
0010
0000
,
1100
0010
0001
0000
0001
0010
0100
0000
1010
0001
0010
0000
0001
0010
0100
0000
,
1010
0001
0010
0000
0001
0010
0100
0000
1010
0001
0010
0000
0001
0010
0100
0000
,
1010
0001
0010
0000
0100
0010
0001
0000
0101
1000
0100
0000
0100
0010
0001
0000
,
0101
1000
0100
0000
0100
0010
0001
0000
0101
1000
0100
0000
0100
0010
0001
0000
,
0101
1000
0100
0000
0010
0100
1010
0000
0100
0010
0101
0000
0010
0100
1010
0000
,
0100
0010
0101
0000
1000
0100
1010
0000
0001
0010
0101
0000
1000
0100
1010
0000
,
0001
0010
0101
0000
1011
0000
1110
0000
1101
0000
1011
0000
0111
0000
1110
0000
,
1101
1011
1110
0111
1101
1110
1011
0111
,
1101
0111
1011
1110
1101
1110
0111
1110
,
1011
1101
1011
1110
0111
1011
1101
1011
,
1110
0111
1101
1011
1101
0111
1110
0111
,
1101
1011
1101
1110
0111
1110
1011
1101
,
1011
1110
1011
0111
1101
0111
1110
1011
,
1101
1110
0111
1011
1101
1110
1101
1011
,
1010
0000
0101
0000
0001
0010
0100
0000
1010
0100
1000
0000
0001
0010
0100
0000
,
1010
0100
1000
0000
0001
0010
0100
0000
1010
0100
1000
0000
0001
0010
0100
0000
,
1010
0100
1000
0000
1000
0100
0010
0000
0101
0010
0001
0000
1000
0100
0010
0000
,
0101
0010
0001
0000
1000
0100
0010
0000
0101
0010
0001
0000
1000
0100
0010
0000
,
0101
0010
0001
0000
0001
0010
0100
0000
1010
0100
1000
0000
0001
0010
0100
0000
,
1010
0100
1000
0000
0001
0010
0100
0000
1010
0100
1000
0000
0001
0010
0100
0000
,
1010
0100
1000
0000
1000
0100
0010
0000
0101
0010
0001
0000
1000
0100
0010
0000
,
0101
0010
0001
0000
1000
0100
0010
0000
0001
0010
0100
0000
1000
0100
0010
0000
,
0001
0010
0100
0000
1011
0000
0000
0000
0000
0000
0000
0000
1011
1011
1011
1011
,
1011
1011
1011
1011
1000
0100
0010
0000
1001
0010
0100
0000
1000
0100
0010
0000
,
1001
0010
0100
0000
0011
0000
1100
0000
0111
0000
1010
0000
0110
0000
1010
0000
,
1101
0000
0011
0000
0100
0010
0001
0000
0011
0100
1000
0000
0100
0010
0001
0000
,
0011
0100
1000
0000
1100
0000
0110
0000
1011
0000
0101
0000
1010
0000
1100
0000
,
1011
0000
1100
0000
0010
0001
1000
0000
0110
1000
0001
0000
0010
0001
1000
0000
,
0110
1000
0001
0000
0110
0000
0101
0000
1110
0000
0101
0000
1010
0000
0110
0000
,
1101
0000
0011
0000
0001
0010
0100
0000
1001
0100
0010
0000
0001
0010
0100
0000
,
1001
0100
0010
0000
0101
0000
1010
0000
1101
0000
0110
0000
0011
0000
1010
0000
,
1101
0110
1001
0010
0100
0010
1001
0010
,
0100
0000
0010
0000
1100
0000
0110
0000
0011
0000
1001
0000
1101
1101
1101
1101
,
1101
1101
1101
1101
1010
0000
0100
0000
0101
0000
0010
0000
1100
0000
0010
0000
,
0011
0100
1001
0100
0110
0001
1010
0100
,
0011
1000
1010
0010
1100
0001
0101
0100
,
1010
0000
0100
0000
1000
0100
0010
0001
0010
0100
1000
0100
0010
0001
0010
0100
,
1000
0100
0010
0001
1110
0000
0010
0000
0101
0000
0100
0000
1010
0000
0010
0000
,
0101
0010
1011
0100
1100
0010
0101
0010
,
1010
0001
1101
0010
0110
1000
1011
0010
,
1001
0000
0100
0000
1011
0000
0100
0000
0111
0000
0100
0000
1111
1111
1111
1111
,
1111
1111
1111
1111
1111
0000
0000
0000
0000
0000
0000
0000
0000
0000
0000
0000
;

//---------------dance-single - ----------------
#NOTES:
     dance-single:
     :
     Medium:
     1:
     0.000,0.000,0.000,0.000,0.000,0.000,0.000,0.000,0.000,0.000:
0000
0000
0000
0000
;

//---------------dance-single - ----------------
#NOTES:
     dance-single:
     :
     Easy:
     1:
     0.000,0.000,0.000,0.000,0.000,0.000,0.000,0.000,0.000,0.000:
0000
0000
0000
0000
;
